Пользователей
90886
Онлайн
26
Решений
3170
Ответить

Оновлення ПЗ для Kaon VM3000

Магістр
Сообщений:8058
ДЯКов:4538
Решений:270
Сообщений в блогах:303
Бейджей:25
Город:Днепр
В Клубе с24.08.2014

Re: Оновлення ПЗ для Kaon VM3000


Prometey написано:

AndreyPopov, да.


протестировать воспроизведение с USB так руки и не дошли, но убивает то, что масштабирование экрана так и не сделали!!!!!

а в связке с тем, что не работает сейчас Youtube вообще - то пока говорить, что обновление хоть что-то исправило или добавило не представляется возможным. Печальный

Магістр
Сообщений:6205
ДЯКов:4045
Решений:128
Сообщений в блогах:326
Бейджей:25
Город:Харків
В Клубе с01.12.2014

Re: Оновлення ПЗ для Kaon VM3000


AndreyPopov написано:

Prometey написано:

AndreyPopov, да.


протестировать воспроизведение с USB так руки и не дошли, но убивает то, что масштабирование экрана так и не сделали!!!!!

а в связке с тем, что не работает сейчас Youtube вообще - то пока говорить, что обновление хоть что-то исправило или добавило не представляется возможным. Печальный


100% 

Ентузіаст
Сообщений:433
ДЯКов:312
Решений:2
Сообщений в блогах:18
Бейджей:19
Город:Рівне
В Клубе с05.01.2015

Re: Оновлення ПЗ для Kaon VM3000

Користувач


Prometey написав:

Здравствуйте, AndreyPopov!

 

Спасибо Вам за очень подробное описание консультации с представителем компании по вопросу обновления ПО тюнера. Информацию обязательно проверим на корректность.

 

Да, речь идет о Kaon CO3510. Обновить ПО можно бесплатно двумя способами:

- самостоятельно в центре современных технологий;

- на дому мастером компании.

 

Это не займет много времени. Но, к сожалению, даже продвинутым пользователям обновить ПО самостоятельно в данном случае не возможно. Провести данное обновление удаленно технически невозможно в связи с особенностью с программного обеспечения. Мы не можем предоставить программное обеспечение для общего доступа. Вы можете принести медиаплеер в ближайший Центр современных технологий, где обновление проведут наши консультанты.


А можно на завтра "бесплатного" мастера с чудо флешкой для обновления ПЗ Kaon CО3510 на дом заказать?

Модератор
Сообщений:6097
ДЯКов:2650
Решений:303
Сообщений в блогах:47
Бейджей:25
В Клубе с08.08.2014

Re: Оновлення ПЗ для Kaon VM3000

TestPassed , да, можно Веселый

Оформила заявку по Вашему адресу на завтра в период  09:00 - 14:00

Ожидайте, пожалуйста, мастера и отвечайте на входящие звонки по номеру, который указан контактным по Вашему договору.

Ентузіаст
Сообщений:433
ДЯКов:312
Решений:2
Сообщений в блогах:18
Бейджей:19
Город:Рівне
В Клубе с05.01.2015

Re: Оновлення ПЗ для Kaon VM3000

Дякую!

Ентузіаст
Сообщений:482
ДЯКов:308
Решений:0
Сообщений в блогах:14
Бейджей:14
Город:Київ
В Клубе с19.12.2014

Re: Оновлення ПЗ для Kaon VM3000

я вот одного не пойму, почему не выложить  на воле обновления шоб всякий мог скачать на флешку и сам обновить.  наверно мастеров и флешек  много, а работы- мало. вот в  самунгах и других  компаниях дурни сидят, по интернету обновления рассылают.

Магістр
Сообщений:8058
ДЯКов:4538
Решений:270
Сообщений в блогах:303
Бейджей:25
Город:Днепр
В Клубе с24.08.2014

Re: Оновлення ПЗ для Kaon VM3000


Сергей О написано:

я вот одного не пойму, почему не выложить  на воле обновления шоб всякий мог скачать на флешку и сам обновить.  


@Сергей О
этот вопрос уже обсуждался!!! иногда читайте предыдущие посты, а не только последние!

узнаете много нового для себя Подмигивающий

Розумник
Сообщений:74
ДЯКов:20
Решений:0
Сообщений в блогах:3
Бейджей:12
Город:Вінниця
В Клубе с24.04.2015

Re: Оновлення ПЗ для Kaon VM3000

Записал на флешку сериал. Видео показывает, а звука нету. Что не так?)

Магістр
Сообщений:6205
ДЯКов:4045
Решений:128
Сообщений в блогах:326
Бейджей:25
Город:Харків
В Клубе с01.12.2014

Re: Оновлення ПЗ для Kaon VM3000


Rockjoy написано:

Записал на флешку сериал. Видео показывает, а звука нету. Что не так?)


формат звуковой дорожки какой?  Возможно Каон не "всеяден" Веселый (мужской)

Розумник
Сообщений:74
ДЯКов:20
Решений:0
Сообщений в блогах:3
Бейджей:12
Город:Вінниця
В Клубе с24.04.2015

Re: Оновлення ПЗ для Kaon VM3000

[ Изменено ]

 

Format : AVI
Format/Info : Audio Video Interleave
File size : 350 MiB
Duration : 24mn 32s
Overall bit rate : 1 996 Kbps
Writing application : VirtualDubMod 1.5.10.3 | www.virtualdub-fr.org || (build 2550/release)
Writing library : VirtualDubMod build 2550/release

Video
ID : 0
Format : MPEG-4 Visual
Format profile : Advanced Simple@L5
Format settings, BVOP : 1
Format settings, QPel : No
Format settings, GMC : No warppoints
Format settings, Matrix : Default (MPEG)
Codec ID : XVID
Codec ID/Hint : XviD
Duration : 24mn 32s
Bit rate : 1 794 Kbps
Width : 720 pixels
Height : 400 pixels
Display aspect ratio : 16:9
Frame rate : 25.000 fps
Color space : YUV
Chroma subsampling : 4:2:0
Bit depth : 8 bits
Scan type : Progressive
Compression mode : Lossy
Bits/(Pixel*Frame) : 0.249
Stream size : 315 MiB (90%)
Writing library : XviD 1.2.1 (UTC 2008-12-04)

Audio
ID : 1
Format : MPEG Audio
Format version : Version 1
Format profile : Layer 3
Mode : Joint stereo
Mode extension : MS Stereo
Codec ID : 55
Codec ID/Hint : MP3
Duration : 24mn 32s
Bit rate mode : Constant
Bit rate : 192 Kbps
Channel(s) : 2 channels
Sampling rate : 48.0 KHz
Compression mode : Lossy
Stream size : 33.7 MiB (10%)
Alignment : Aligned on interleaves
Interleave, duration : 40 ms (1.00 video frame)
Interleave, preload duration : 504 ms
Writing library : LAME3.99r
Encoding settings : -m j -V 4 -q 2 -lowpass 18.6 -b 192

 

Инфа из Gomplayer.